Skip to main content

Reason For Leaving Live at Glass Nickel on 2009-12-20




Disc 1 (36:18.38)
01. intro
02. Dreaming
03. Hustler
04. Elven Girlfriend
05. It's A Shame
06. Sun Signal

Disc 2 (46:23.50)
07. Midgets
08. banter - shades of Payne
09. Shades Of Pain
10. Wetter
11. Freedom
12. Bitch Sticks
13. Blown
14. Butterknife
15. post show crowd
16. recordist's signout


Collection ReasonForLeaving
Band/Artist Reason For Leaving
Date December 20, 2009
Venue Glass Nickel
Location Madison WI USA

Source Neumann KM140's > Beyer MV100 > Zoom H2 > WAV @24bit/48kHz
Lineage WAV > Audacity > xACT > FLAC
Taped by morst
Transferred by morst


Notes

In celebration of Phoebe's return from Europe

SHNTOOL:
length expanded size cdr WAVE problems fmt ratio filename
1:03.58 11249660 B --- -- ---xx RFL2009-12-20d1t01.flac
6:12.65 65773724 B --- -- ---xx RFL2009-12-20d1t02.flac
5:22.18 56843180 B --- -- ---xx RFL2009-12-20d1t03.flac
4:50.54 51283052 B --- -- ---xx RFL2009-12-20d1t04.flac
8:45.59 92748812 B --- -- ---xx RFL2009-12-20d1t05.flac
10:03.09 106390412 B --- -- ---xx RFL2009-12-20d1t06.flac
6:03.10 64056764 B --- -- ---xx RFL2009-12-20d2t01.flac
1:47.18 18917180 B --- -- ---xx RFL2009-12-20d2t02.flac
8:23.68 88889180 B --- -- ---xx RFL2009-12-20d2t03.flac
5:25.32 57405308 B --- -- ---xx RFL2009-12-20d2t04.flac
6:29.23 68673740 B --- -- ---xx RFL2009-12-20d2t05.flac
6:17.74 66676892 B --- -- ---xx RFL2009-12-20d2t06.flac
3:11.50 33810044 B --- -- ---xx RFL2009-12-20d2t07.flac
7:39.70 81132284 B --- -- ---xx RFL2009-12-20d2t08.flac
0:36.27 6413948 B --- -- ---xx RFL2009-12-20d2t09.flac
0:28.53 5063900 B --- -- ---xx RFL2009-12-20d2t10.flac
82:42.13 875328080 B 0.5751 (16 files)

~=~=~=~=~=~=~=~=~=~=~=~=~=~=~=~=~=~=~=~=~=~=~=~=~
The Soundscape Preservation Society (Founded 1991)
http://www.iamtypingwithonefinger.com/SPS.html
~=~=~=~=~=~=~=~=~=~=~=~=~=~=~=~=~=~=~=~=~=~=~=~=~

Reviews

There are no reviews yet. Be the first one to write a review.
Download Options
480.1M
FLAC
462.9K
JPEG
55.8M
OGG VORBIS
3.8K
TEXT
39.1K
TORRENT
118.8M
VBR M3U
118.8M
VBR MP3
-
VBR ZIP
Uploaded by
morst
on 12/26/2009
Views
155
Favorites
1
PEOPLE ALSO FOUND
Reason For Leaving
by Reason For Leaving
787
0
0
Source: KM140 Matrix > DAT
Reason For Leaving
by Reason For Leaving
3,078
0
2
( 2 reviews )
Source: Neumann KM140's > Beyer MV100 > Sony SBM-1 (Oade mod) > Sony TCD-D100 DAT @48KHz
Reason For Leaving
by Reason For Leaving
13,710
0
1
( 1 reviews )
Source: Neumann KM140's (approx ORTF, FOB) > Beyer MV100 (+20dB gain) > Sony SBM-1 (Oade mod) > 48KHz S/Pdif > Sony PCM-M1
Reason For Leaving
by Reason For Leaving
1,167
1
0
Source: Neumann KM140's (ORTF, shock mounted on clamp, left side) > Beyer MV100 > Sony PCM-M1 > DAT @16-bit/48 KHz
Reason For Leaving
by Reason For Leaving
2,902
1
0
Source: Neumann KM140's ORTF shock-mounted on stand (~5') with DPA windscreens > Beyer MV100 > Sony PCM-M1 > DAT @48KHz
Reason For Leaving
by Reason For Leaving
3,134
1
0
Source: KM140's > MV100 > TCD-D10 ProII
Reason For Leaving
by Reason For Leaving
640
1
0
Source: KM140's > MV100 > TCD-D10 ProII (Oade mod)
Reason For Leaving
by Reason For Leaving
493
1
0
Source: Neumann KM140s's > Beyer MV100 > Sony DAT
Reason For Leaving
by Reason For Leaving
1,674
1
0
Source: KM140's > MV100 > DAT
Reason For Leaving
by Reason For Leaving
756
1
0
Source: KM140 > MV100 > SBM > DAT